#TITLE:Saying I Love You;
#SUBTITLE:Expi3nze;
#ARTIST:Wonder Girls;
#TITLETRANSLIT:;
#SUBTITLETRANSLIT:;
#ARTISTTRANSLIT:;
#CREDIT:;
#BANNER:bn.png;
#BACKGROUND:bg.png;
#LYRICSPATH:;
#CDTITLE:cdtitle.png;
#MUSIC:SILY.mp3;
#OFFSET:-0.220;
#SAMPLESTART:104.920;
#SAMPLELENGTH:25.800;
#SELECTABLE:YES;
#BPMS:0.000=100.000,24.000=50.000,47.500=100.000,216.000=50.000;
#STOPS:;
#BGCHANGES:;
// cache tags:
#FIRSTBEAT:0.500;
#LASTBEAT:228.750;
#SONGFILENAME:Songs/SDO pack 4/SILY/SILY.sm;
#HASMUSIC:1;
#HASBANNER:1;
#MUSICLENGTH:160.316;
// end cache tags

//---------------dance-single - ----------------
#NOTES:
     dance-single:
     :
     Hard:
     12:
     0.609,0.624,1.000,0.580,0.209,405.000,177.000,93.000,0.000,83.000:
0000
0010
0010
1000
0001
0001
0100
0001
,
1000
0000
0100
0000
0001
0000
0010
0001
0100
0000
1000
0000
0010
0000
0010
0000
,
1000
0000
0100
0000
0010
0000
0001
0000
1000
0000
1000
0000
0010
0000
0001
0010
,
0100
0012
0010
1000
0010
1000
0010
2000
,
0010
3013
0200
0010
0010
1000
0301
0010
,
2010
0000
0000
3002
0000
0000
2003
0000
,
3000
1100
0000
0000
0000
0000
0001
0010
0000
0100
0010
0100
1000
0011
0000
0000
,
0000
0000
1000
0100
0000
0001
0010
0100
1000
0010
0010
1000
0011
0110
1100
1100
,
0001
0010
0100
1000
0101
0101
0000
1010
0000
0001
0001
1010
0000
0000
0011
1000
,
1000
0010
0100
1000
0011
0000
0100
0100
0000
0000
1000
0100
0010
0100
0000
0000
,
0101
0000
0001
0100
0000
0000
0010
0010
0001
1000
0000
0110
0000
0000
0001
0010
,
1000
0100
0010
0001
1000
0100
0001
1100
0000
0011
0110
1100
0001
0001
1100
0000
,
1001
0011
0021
0000
0000
1001
1100
1001
,
2030
0000
3000
0011
1001
1010
1020
0000
,
0000
0000
1000
0000
1000
0000
1130
0001
0100
0000
2000
0000
0000
0000
3210
0000
,
0000
0311
0012
0000
0000
0203
0000
1010
,
1320
0000
0000
2030
0200
3320
2000
0031
,
0001
3101
0000
0101
2101
0000
0001
3011
,
1010
1010
0020
0000
0000
0032
0000
1100
,
1203
0000
0000
1310
1010
0101
0102
0000
,
0000
2003
0000
0110
3120
0000
0000
1130
,
1001
1010
1020
0000
0000
1031
0000
1010
,
1010
0011
0110
1100
1001
1001
1010
1010
,
0011
1000
1010
1010
0011
1010
1010
1001
,
0010
0100
1002
0000
0000
0203
0000
0011
,
0321
0000
0000
1130
1100
0101
0102
0000
,
0000
0203
0000
1001
1302
0000
0000
1013
,
1010
0101
0201
0000
0000
0000
0010
0311
,
0011
1000
0100
1010
1010
0011
1002
1100
,
0000
0010
1103
1001
2001
0000
0010
0010
,
0101
0000
3101
0000
0111
0000
1000
0000
0010
1000
0111
0000
0010
0000
1100
0001
,
0010
0000
1100
0000
0001
0010
1001
0000
1001
0000
2001
0000
0011
0000
3011
0000
,
0110
1100
1001
1001
2000
0200
3020
2300
,
0032
3200
2003
0300
0000
0110
0200
0010
,
0320
0000
3030
0011
1001
1100
0002
0000
,
0000
1113
2000
0200
3002
2300
0200
3023
,
2000
0332
3200
1003
1000
0001
1000
1000
,
1011
0001
1000
1000
1000
1310
2200
0000
,
0000
0322
3000
1130
2203
0000
3000
0311
,
1010
1010
0022
0000
0000
2033
0000
0110
,
3122
0000
0000
1133
1001
1010
1020
2000
,
0200
3331
0000
1010
1010
0011
0110
1100
,
1001
1001
1010
1010
0011
1000
1010
1010
,
0011
1010
1010
1001
0010
0100
1022
0000
,
0000
2233
0000
0011
3321
0000
0000
1130
,
1100
1001
2002
0000
0000
3223
0000
0031
,
1322
0000
0030
1013
1010
0101
0201
0000
,
0000
0000
0010
0311
0011
1000
0100
1010
,
1010
0011
1002
1100
0000
0010
1103
1001
,
2001
0000
0010
0010
0101
3101
0210
0000
,
0000
0000
0010
0010
0001
0000
0000
0311
,
1001
1100
2000
0010
0010
3100
0001
1000
,
0100
0010
0001
0100
0100
0001
0200
0001
,
0001
1000
0010
0310
1000
0100
0010
0001
,
2000
0000
0000
0200
0000
0020
0000
0000
3330
0000
2000
0010
0000
0000
3010
0000
1000
0000
0000
0001
0000
0000
1000
0000
0000
0010
0000
0100
0010
0000
0001
0000
,
1000
0000
0000
0000
2000
0000
0000
0000
0000
0200
0000
0000
0000
0000
0000
0000
0310
0001
0010
0000
3200
0000
0000
0010
0000
0010
0000
1000
0000
0001
0010
0001
,
0010
0001
0000
0010
0000
0010
0000
1000
0000
0000
0010
0000
0000
0000
0010
0000
0000
0000
0000
0000
0000
0000
0000
0000
0000
0000
0000
0000
0000
0000
0000
0000
,
0000
0000
0000
0300
0000
0000
0000
0000
0000
0000
0000
0000
0000
0000
0000
0000
;
